descargarfull logo
 
Estas en Home Peliculas The Amazing Spider-Man (2012) | 1080p Blu-ray x264 mkv | Español Latino-Inglés

The Amazing Spider-Man (2012) | 1080p Blu-ray x264 mkv | Español Latino-Inglés

 
 

Bienvenido a este nuevo post, aqui vas a poder encontrar para descargar gratis The Amazing Spider-Man (2012) | 1080p Blu-ray x264 mkv | Español Latino-Inglés espero lo disfrutes como siempre si no funciona los enlaces usa el buscador haber si encontras el post de otro uploader y listo, The Amazing Spider-Man (2012) | 1080p Blu-ray x264 mkv | Español Latino-Inglés fue guardado en la categoria Peliculas fijate si te interesa encontrar mas cosas similares en esta misma categoria, no dudes seguirnos visitando y disfruta del mejor contenido gratis.

The Amazing Spider-Man (2012) | 1080p Blu-ray x264 mkv | Español Latino-Inglés | Fantástico | 




TÍTULO ORIGINAL:    The Amazing Spider-Man (The Amazing Spiderman)
OTROS TÍTULOS: El Sorprendente Hombre Araña
AÑO: 2012
DURACIÓN: 136 min.
PAÍS: USA
DIRECTOR:    Marc Webb
GUIÓN:    Steve Kloves, James Vanderbilt, Alvin Sargent (Personajes: Stan Lee, Steve Ditko)
MÚSICA:    James Horner
FOTOGRAFÍA:    John Schwartzman
REPARTO:    Andrew Garfield, Emma Stone, Rhys Ifans, Sally Field,  Martin Sheen, Denis Leary, Campbell Scott, Embeth Davidtz, Irrfan Khan,  C. Thomas Howell, Stan Lee
PRODUCTORA:    Sony Pictures / Columbia Pictures / Marvel Studios
GÉNERO:    Fantástico. Acción. Romance | Adolescencia. Superhéroes. Cómic. Marvel Comics. 3-D
FECHA DE ESTRENO JAPÑON:   13 Junio 2012
FECHA DE ESTRENO USA:   3 Julio 2012
FECHA DE ESTRENO ARGENTINA:   4 Julio 2012
FECHA DE ESTRENO ESPAÑA:   6 Julio 2012


Peter Parker, un marginado  estudiante cuyos padres lo abandonaron cuando era niño, fue criado por  sus tíos Ben y May. Mientras trata de descifrar quién es, se topa con  Gwen Stacy y descubre el amor. Cuando Peter descubre un misterioso  portafolio que perteneció a su padre, comienza su misión para entender  por qué desapareció, lo cual lo lleva directamente a OsCorp y al  laboratorio del Dr. Curt Connors, antiguo socio de su padre. Conforme el  Hombre Araña se enfrenta al alter ego de Connors, Lagarto, Peter tomará  decisiones sobre sus poderes que cambiarán su destino.


Formato:mkv
Calidad:Blu-ray 1080p
Video Codec:x264
Resolucion:1920 x 804
Tamaño:8.76 GB
Audio 1:Español Latino
Audio 2:Inglés
Subtítulos:Español, Francés
Servidor: letitbit
Uploader:Camix2012
General
Format                                   : Matroska
Format version                           : Version 2
File size                                : 8.76 GiB
Duration                                 : 2h 16mn
Overall bit rate                         : 9 202 Kbps
Encoded date                             : UTC 2012-10-25 08:37:21
Writing application                      : mkvmerge v5.6.0 (‘Kenya Kane’) built on May 27 2012 16:44:04
Writing library                          : libebml v1.2.3 + libmatroska v1.3.0

Video
ID                                       : 1
Format                                   : AVC
Format/Info                              : Advanced Video Codec
Format profile                           : High*****L4.1
Format settings, CABAC                   : Yes
Format settings, ReFrames                : 5 frames
Muxing mode                              : Header stripping
Codec ID                                 : V_MPEG4/ISO/AVC
Duration                                 : 2h 16mn
Bit rate                                 : 8 370 Kbps
Width                                    : 1 920 pixels
Height                                   : 804 pixels
Display aspect ratio                     : 2.40:1
Frame rate                               : 23.976 fps
Color space                              : YUV
Chroma subsampling                       : 4:2:0
Bit depth                                : 8 bits
Scan type                                : Progressive
Bits/(Pixel*Frame)                       : 0.226
Stream size                              : 7.79 GiB (89%)
Writing library                          : x264 core 128 r2216 198a7ea
Encoding settings                        : cabac=1 / ref=5 / deblock=1:0:0 / analyse=0×3:0×113 / me=umh / subme=8 / psy=1 / psy_rd=1.00:0.00 / mixed_ref=1 / me_range=16 / chroma_me=1 / trellis=1 / 8x8dct=1 / cqm=0 / deadzone=21,11 / fast_pskip=1 / chroma_qp_offset=-2 / threads=12 / lookahead_threads=2 / sliced_threads=0 / nr=0 / decimate=1 / interlaced=0 / bluray_compat=0 / constrained_intra=0 / bframes=3 / b_pyramid=2 / b_adapt=2 / b_bias=0 / direct=3 / weightb=1 / open_gop=0 / weightp=2 / keyint=240 / keyint_min=24 / scenecut=40 / intra_refresh=0 / rc_lookahead=50 / rc=2pass / mbtree=1 / bitrate=8370 / ratetol=1.0 / qcomp=0.60 / qpmin=0 / qpmax=69 / qpstep=4 / cplxblur=20.0 / qblur=0.5 / ip_ratio=1.40 / aq=1:1.00
Language                                 : English

Audio #1
ID                                       : 2
Format                                   : AC-3
Format/Info                              : Audio Coding 3
Mode extension                           : CM (complete main)
Muxing mode                              : Header stripping
Codec ID                                 : A_AC3
Duration                                 : 2h 16mn
Bit rate mode                            : Constant
Bit rate                                 : 384 Kbps
Channel(s)                               : 6 channels
Channel positions                        : Front: L C R, Side: L R, LFE
Sampling rate                            : 48.0 KHz
Bit depth                                : 16 bits
Compression mode                         : Lossy
Delay relative to video                  : 24ms
Stream size                              : 374 MiB (4%)
Title                                    : Spanish LAT AC3 384Kbps
Language                                 : Spanish

Audio #2
ID                                       : 3
Format                                   : AC-3
Format/Info                              : Audio Coding 3
Mode extension                           : CM (complete main)
Muxing mode                              : Header stripping
Codec ID                                 : A_AC3
Duration                                 : 2h 16mn
Bit rate mode                            : Constant
Bit rate                                 : 448 Kbps
Channel(s)                               : 6 channels
Channel positions                        : Front: L C R, Side: L R, LFE
Sampling rate                            : 48.0 KHz
Bit depth                                : 16 bits
Compression mode                         : Lossy
Stream size                              : 437 MiB (5%)
Title                                    : English AC3 448kbps
Language                                 : English

Text #1
ID                                       : 4
Format                                   : UTF-8
Codec ID                                 : S_TEXT/UTF8
Codec ID/Info                            : UTF-8 Plain Text
Title                                    : Spanish
Language                                 : Spanish

Text #2
ID                                       : 5
Format                                   : UTF-8
Codec ID                                 : S_TEXT/UTF8
Codec ID/Info                            : UTF-8 Plain Text
Title                                    : French_forced
Language                                 : French

Text #3
ID                                       : 6
Format                                   : UTF-8
Codec ID                                 : S_TEXT/UTF8
Codec ID/Info                            : UTF-8 Plain Text
Title                                    : French
Language                                 : French

Menu
00:00:00.000                             : en:00:00:00.000
00:07:45.924                             : en:00:07:45.924
00:14:39.670                             : en:00:14:39.670
00:22:57.543                             : en:00:22:57.543
00:32:58.226                             : en:00:32:58.226
00:41:25.066                             : en:00:41:25.066
00:48:42.503                             : en:00:48:42.503
00:55:10.933                             : en:00:55:10.933
01:03:17.293                             : en:01:03:17.293
01:12:29.011                             : en:01:12:29.011
01:17:51.750                             : en:01:17:51.750
01:24:38.949                             : en:01:24:38.949
01:34:04.556                             : en:01:34:04.556
01:42:59.548                             : en:01:42:59.548
01:52:16.355                             : en:01:52:16.355
02:00:52.912                             : en:02:00:52.912





Links protegidos


Link
http://ncrypt.in/folder-aXvoJDmu

Un solo enlace de 8.76 GB
Contraseña:camix

!!!ATENCION!!!

  PARA DESCARGAR MAS RAPIDO SUS ARCHIVOS LES RECOMIENDO COMPRAR UNA CUENTA PREMIUM,

  ASI PODRAN DESCARGAR MUCHO MAS RAPIDO Y ADEMAS PODRAN PAUSAR SUS DESCARGAS Y REANUDARLAS CUANDO GUSTEN.

   PUEDEN OBTENER SUS CUENTAS PREMIUM DE VARIAS FORMA HASTA POR SMS  DESDE   SU CELULAR A MUY BAJO PRECIO DEPENDIENDO POR CUANTO TIEMPO LA  QUIERAS,
  LES DEJO AQUI LAS TABLAS DE COMO HACERLO

Gracias por visitar mi post The Amazing Spider-Man (2012) | 1080p Blu-ray x264 mkv | Español Latino-Inglés, recuerda que si queres ver mas aportes parecidos podes consultar la categoria Peliculas en donde dejo todos mis aportes similares para que puedas descargar totalmente gratis, este aporte lo agrege el 25/10/2012, fijate si es muy viejo por ahi los enlaces estan caidos, usa el buscador que aparece en la derecha para hacer una busqueda y que te aparezcan los resultados mas actuales.

  • the amazing spiderman [2012][bdrip 1080p mega

  • the amazing spiderman 1080p mega

  • the amazing spiderman español 1080p netload


buscar juegos
sidebar2

peliculas gratis y fotos
 
categorias
sidebar2
 
sobre el post
flecha Archivado en: Peliculas
flecha Publicado el: 25/10/2012
flecha Tags:
sidebar2

Ver y descargar peliculas online gratis