descargarfull logo
 
Estas en Home Peliculas Lotoman [DvdRIP] [2011] [1Link]

Lotoman [DvdRIP] [2011] [1Link]

 
 

Bienvenido a este nuevo post, aqui vas a poder encontrar para descargar gratis Lotoman [DvdRIP] [2011] [1Link] espero lo disfrutes como siempre si no funciona los enlaces usa el buscador haber si encontras el post de otro uploader y listo, Lotoman [DvdRIP] [2011] [1Link] fue guardado en la categoria Peliculas fijate si te interesa encontrar mas cosas similares en esta misma categoria, no dudes seguirnos visitando y disfruta del mejor contenido gratis.

Lotoman narra la historia de cómo se transforman las vidas de dos primos, Modesto (Pozo) y Manuel (Céspedes), quienes tras resultar ganadores de un millonario premio de lotería y ver todos los sueños de sus vidas realizados, se olvidan del tesoro mas preciado que cualquier persona puede tener… La familia. Lotoman es una original y fresca comedia que nos expone a una realidad social y familiar muy especial: la de aquellos que sueñan con arreglar su vida a partir de un premio.

Titulo: Lotoman
Idioma: Español (Republica Dominicana)
Formato: AVI
Calidad de imagen: Muy Buena

dijo:
General
Complete name : files/p-lot__Luke.avi
Format : AVI
Format/Info : Audio Video Interleave
File size : 887 MiB
Duration : 1h 38mn
Overall bit rate : 1 265 Kbps
Writing application : MEncoder 1.0rc2-4.2.4
Writing library : MPlayer

Video
ID : 0
Format : MPEG-4 Visual
Format profile : Simple*****L1
Format settings, BVOP : No
Format settings, QPel : No
Format settings, GMC : No warppoints
Format settings, Matrix : Default (H.263)
Codec ID : DX50
Codec ID/Hint : DivX 5
Duration : 1h 38mn
Bit rate : 1 172 Kbps
Width : 624 pixels
Height : 272 pixels
Display aspect ratio : 2.25:1
Frame rate : 29.970 fps
Color space : YUV
Chroma subsampling : 4:2:0
Bit depth : 8 bits
Scan type : Progressive
Bits/(Pixel*Frame) : 0.230
Stream size : 822 MiB (93_)
Writing library : Lavc51.44.0

Audio
ID : 1
Format : MPEG Audio
Format version : Version 1
Format profile : Layer 3
Codec ID : 55
Codec ID/Hint : MP3
Duration : 1h 38mn
Bit rate mode : Constant
Bit rate : 80.0 Kbps
Channel(s) : 2 channels
Sampling rate : 44.1 KHz
Stream size : 56.1 MiB (6_)
Alignment : Aligned on interleaves
Interleave, duration : 26 ms (0.78 video frame)
Interleave, preload duration : 522 ms
Writing library : LAME3.98

http://www.wupload.com/file/33285863

o

http://www.uploadstation.com/file/5aTjCAf

Gracias por visitar mi post Lotoman [DvdRIP] [2011] [1Link], recuerda que si queres ver mas aportes parecidos podes consultar la categoria Peliculas en donde dejo todos mis aportes similares para que puedas descargar totalmente gratis, este aporte lo agrege el 25/06/2011, fijate si es muy viejo por ahi los enlaces estan caidos, usa el buscador que aparece en la derecha para hacer una busqueda y que te aparezcan los resultados mas actuales.

  • lotoman 2 0 letitbit

  • 4shared lotoman 2 0

  • mgaupload lotoman 2 0

  • lotoman rar download


buscar juegos
sidebar2

peliculas gratis y fotos
 
categorias
sidebar2
 
sobre el post
flecha Archivado en: Peliculas
flecha Publicado el: 25/06/2011
flecha Tags: , , , , , , , , , , , , , ,
sidebar2

Ver y descargar peliculas online gratis